[MV] Super Junior - SPY [Корея, 2012, HDTVRip][KOR+SUB] 

Цитировать
Super Junior - SPYГод выпуска: 2012
Страна: Южная Корея
Жанр: KPop
Продолжительность: 03:22
Перевод: субтитры
Описание:
Необычная, интригующая песня от всеми любимых Супер Джуниор из их последнего рипэкиджа SPY.
Доп. информация:
Перевод, тайминг, оформление - amaneshka
ОБЯЗАТЕЛЬНО УСТАНОВИТЕ ШРИФТЫ!!!
СМОТРЕТЬ ЧЕРЕЗ Media Player Classic!!!
Video: MPEG4 Video (H264) 1280x720 23.98fps 2 665 Kbps [Video]
Audio: AAC 44100Hz stereo 1411Kbps [Audio]

Все тех.данные

Format : MPEG-4
Format profile : Base Media / Version 2
Codec ID : mp42
File size : 68.9 MiB
Duration : 3mn 22s
Overall bit rate : 2 859 Kbps
Encoded date : UTC 2012-08-12 02:12:02
Tagged date : UTC 2012-08-12 02:12:02
gsst : 0
gstd : 202408
gssd : B4A7D6C64HH1344843173256535
Video #1
ID : 1
Format : AVC
Format/Info : Advanced Video Codec
Format profile : High@L3.1
Format settings, CABAC : Yes
Format settings, ReFrames : 1 frame
Codec ID : avc1
Codec ID/Info : Advanced Video Coding
Duration : 3mn 22s
Bit rate mode : Variable
Bit rate : 2 665 Kbps
Maximum bit rate : 4 969 Kbps
Width : 1 280 pixels
Height : 720 pixels
Display aspect ratio : 16:9
Frame rate mode : Constant
Frame rate : 23.976 fps
Resolution : 24 bits
Colorimetry : 4:2:0
Scan type : Progressive
Bits/(Pixel*Frame) : 0.121
Stream size : 64.3 MiB (93%)
Encoded date : UTC 1970-01-01 00:00:00
Tagged date : UTC 2012-08-12 02:12:02
Audio #2
ID : 2
Format : AAC
Format/Info : Advanced Audio Codec
Format version : Version 4
Format profile : LC
Format settings, SBR : No
Codec ID : 40
Duration : 3mn 22s
Bit rate mode : Variable
Bit rate : 192 Kbps
Maximum bit rate : 202 Kbps
Channel(s) : 2 channels
Channel positions : L R
Sampling rate : 44.1 KHz
Resolution : 16 bits
Stream size : 4.63 MiB (7%)
Title : IsoMedia File Produced by Google, 5-11-2011
Encoded date : UTC 2012-08-12 02:12:02
Tagged date : UTC 2012-08-12 02:12:02
Скорость у меня маленькая, но раздаю круглые сутки!

здесь http://rutracker.org/forum/tracker.php?rid=21037789
и здесь http://rutracker.org/forum/tracker.php?rid=6489857

Вы не можете начинать темы
Вы не можете отвечать на сообщения
Вы не можете редактировать свои сообщения
Вы не можете удалять свои сообщения
Вы не можете голосовать в опросах
Вы не можете прикреплять файлы к сообщениям
Вы можете скачивать файлы
!ВНИМАНИЕ!

Сайт не предоставляет электронные версии произведений, а занимается лишь коллекционированием и каталогизацией ссылок, присылаемых и публикуемых на форуме нашими читателями. Если вы являетесь правообладателем какого-либо представленного материала и не желаете, чтобы ссылка на него находилась в нашем каталоге, свяжитесь с нами, и мы незамедлительно удалим ее. Файлы для обмена на трекере предоставлены пользователями сайта, и администрация не несет ответственности за их содержание. Просьба не заливать файлы, защищенные авторскими правами, а также файлы нелегального содержания!

Искали программы, игры, дополнения, музыка mp3, аниме, аудио книги, журналы? Добро пожаловать на свободный торрент трекер Torrents, у нас можно скачать бесплатно, без смс и регистрации и прочих ограничений лучшие, отборные сборки программ, игр. Скачать торрентом не составит труда даже не опытному пользователю. Раздачи ежедневно обновляются, только лучшие и качественные раздачи, подробные описания и скриншоты. Огромная коллекция программ для работы со звуком, графикой, дизайном, а так же множество плагинов и инструментов к ним с подробной инструкцией и рекомендациями. Прошивки для навигаторов, карты. Разнообразные игры, для Windows, Linux. В коллекцие есть и старые игры любых жанров, Rpg, Action, Shooter, strategy Множество дополнений, модификаций, сценариев для популярных игр в жанре экш, рпг, гонки, стратегии, логические игры. Множество аддонов и сценариев для Microsoft Flight Simulator Большая коллекция книг, учебников. Если нет возможности купить печатное издание - смело скачивайте цифровую версию книги или, быть может, журнала. Не любите читать - можно загрузить бесплатно аудикнигу. Для веб дизайнеров и программистов так же найдется множество специализированного софта, таких как: редакторы с подсветкой, среды программирования, компоненты, системы управления базами данных, разнообразные скрипты и шаблоны. Не так давно у нас появился материал для автолюбителей и владельцев мото - оригинальные и неоригинальные каталоги запчастей, книги и журналы по ремонту и обслуживанию, видеоуроки, статьи по чип тюнингу, прошивкам. Процедура получения контента элементарная, достаточно просто скачать торрент файл и добавить его в загрузку в вашем торрент клиенте. Если у вас нет специального торрент клиента, вы можете его скачать у нас.

Tetap Dalam Jiwa | Спорт | Handyverträge