[MV] Baby Soul - No better than strangers (Ft. Wheesung) [2011, Корея, K-POP, HDTVRip] [KOR+SUB] 

Цитировать
Baby Soul - No better than strangers (Ft. Wheesung)Год выпуска: 2011
Страна: Южная Корея
Жанр: KPop
Продолжительность: 04:07 мин
Перевод: субтитры
Перевод, тайминг, оформление - amaneshka
ОБЯЗАТЕЛЬНО УСТАНОВИТЕ ШРИФТЫ!!!
СМОТРЕТЬ ЧЕРЕЗ Media Player Classic!!!
Дополнительная информация:
Дебютный сингл новой корейской певицы Baby Soul.
Очень красивая песня в которой певица продемонстрировала свои сильные вокальные данные!
Video: MPEG4 Video (H264) 1280x720 1 380 Kbps 23.976 fps[Video]
Audio: AAC 44100Hz stereo 1411Kbps 2 channels [Audio]

Все тех.данные

Format : MPEG-4
Format profile : Base Media / Version 2
Codec ID : mp42
File size : 45.3 MiB
Duration : 4mn 7s
Overall bit rate : 1 535 Kbps
Encoded date : UTC 2011-11-21 15:15:18
Tagged date : UTC 2011-11-21 15:15:18
gsst : 0
gstd : 247546
gssd : BADC20622MH1322028759946854
Video #1
ID : 1
Format : AVC
Format/Info : Advanced Video Codec
Format profile : High@L3.1
Format settings, CABAC : Yes
Format settings, ReFrames : 1 frame
Codec ID : avc1
Codec ID/Info : Advanced Video Coding
Duration : 4mn 7s
Bit rate mode : Variable
Bit rate : 1 380 Kbps
Maximum bit rate : 3 476 Kbps
Width : 1 280 pixels
Height : 720 pixels
Display aspect ratio : 16:9
Frame rate mode : Variable
Frame rate : 23.976 fps
Minimum frame rate : 23.762 fps
Maximum frame rate : 24.341 fps
Resolution : 24 bits
Colorimetry : 4:2:0
Scan type : Progressive
Bits/(Pixel*Frame) : 0.062
Stream size : 40.7 MiB (90%)
Encoded date : UTC 1970-01-01 00:00:00
Tagged date : UTC 2011-11-21 15:15:19
Audio #2
ID : 2
Format : AAC
Format/Info : Advanced Audio Codec
Format version : Version 4
Format profile : LC
Format settings, SBR : No
Codec ID : 40
Duration : 4mn 7s
Bit rate mode : Variable
Bit rate : 152 Kbps
Maximum bit rate : 185 Kbps
Channel(s) : 2 channels
Channel positions : L R
Sampling rate : 44.1 KHz
Resolution : 16 bits
Stream size : 4.48 MiB (10%)
Title : IsoMedia File Produced by Google, 5-11-2011
Encoded date : UTC 2011-11-21 15:15:19
Tagged date : UTC 2011-11-21 15:15:19

Скриншот

Скорость у меня маленькая, но раздаю круглые сутки!
Другие мои переводы:
здесь http://rutracker.org/forum/tracker.php?rid=21037789
и здесь http://rutracker.org/forum/tracker.php?rid=6489857
Вы не можете начинать темы
Вы не можете отвечать на сообщения
Вы не можете редактировать свои сообщения
Вы не можете удалять свои сообщения
Вы не можете голосовать в опросах
Вы не можете прикреплять файлы к сообщениям
Вы можете скачивать файлы
!ВНИМАНИЕ!

Сайт не предоставляет электронные версии произведений, а занимается лишь коллекционированием и каталогизацией ссылок, присылаемых и публикуемых на форуме нашими читателями. Если вы являетесь правообладателем какого-либо представленного материала и не желаете, чтобы ссылка на него находилась в нашем каталоге, свяжитесь с нами, и мы незамедлительно удалим ее. Файлы для обмена на трекере предоставлены пользователями сайта, и администрация не несет ответственности за их содержание. Просьба не заливать файлы, защищенные авторскими правами, а также файлы нелегального содержания!

Искали программы, игры, дополнения, музыка mp3, аниме, аудио книги, журналы? Добро пожаловать на свободный торрент трекер Torrents, у нас можно скачать бесплатно, без смс и регистрации и прочих ограничений лучшие, отборные сборки программ, игр. Скачать торрентом не составит труда даже не опытному пользователю. Раздачи ежедневно обновляются, только лучшие и качественные раздачи, подробные описания и скриншоты. Огромная коллекция программ для работы со звуком, графикой, дизайном, а так же множество плагинов и инструментов к ним с подробной инструкцией и рекомендациями. Прошивки для навигаторов, карты. Разнообразные игры, для Windows, Linux. В коллекцие есть и старые игры любых жанров, Rpg, Action, Shooter, strategy Множество дополнений, модификаций, сценариев для популярных игр в жанре экш, рпг, гонки, стратегии, логические игры. Множество аддонов и сценариев для Microsoft Flight Simulator Большая коллекция книг, учебников. Если нет возможности купить печатное издание - смело скачивайте цифровую версию книги или, быть может, журнала. Не любите читать - можно загрузить бесплатно аудикнигу. Для веб дизайнеров и программистов так же найдется множество специализированного софта, таких как: редакторы с подсветкой, среды программирования, компоненты, системы управления базами данных, разнообразные скрипты и шаблоны. Не так давно у нас появился материал для автолюбителей и владельцев мото - оригинальные и неоригинальные каталоги запчастей, книги и журналы по ремонту и обслуживанию, видеоуроки, статьи по чип тюнингу, прошивкам. Процедура получения контента элементарная, достаточно просто скачать торрент файл и добавить его в загрузку в вашем торрент клиенте. Если у вас нет специального торрент клиента, вы можете его скачать у нас.

Room 104 (34) | winter on fire | Ant-Man and the Wasp torrent