[K-TV] Сонёшиде - Ночная звезда / SNSD - Night star [2/2] [KOR+SUB] (Чжо Сынвук) [Корея, 2010 г., ТВ - шоу, TVRip] 

Цитировать
Сонёшиде - Ночная звезда / SNSD - Night star
Год выпуска: 2010
Страна: Корея
Жанр: ТВ - шоу
Продолжительность: 2 серии из 2 (по 64 мин.)
Перевод: Субтитры
Русские субтитры: есть
Режиссер: Чжо Сынвук
В ролях:
МС - Шин Дон Уп
Юн Чжоншин
Гил
Онью (SHINee)
SNSD (без Тиффани)
Ынхёк (Super Junior)
Перевод фансаб-группы "G9"
Тайминг: Lan Huong
1 серия перевод: Dary Po, Маргарита
2 серия перевод: Инна, Dary Po, Маргарита

Описание

Это самые смешные и веселые выпуски Night Star. Шоу ведут постоянные МС Шин Донёп, Юн Чжоншин, Гил и Юнью (SHINee) вместе с приглашенным Ынхёком (Super Junior). SNSD (кроме Тиффани, она повредила ногу) рассказывают много интересного, включая рассказы о своих выходках в состоянии опьянения и малоизвестную сцену "Наша макнэ, наша макнэ". Если Вы не знаете что это такое, то вам стоит посмотреть эти выпуски. Также SNSD "хвалятся" своими добрыми делами, после чего их "судит" еда. Посмотрите шоу и увидите, кто попадется. Позже они выезжают на улицы города в "Ночном грузовичке", где собирается огромная толпа людей, чтобы посмотреть на девочек. И в самом конце SNSD вместе с ведущими записывают аудиокнигу "Самый модный великан в городе". Эти выпуски стоит посмотреть.
Качество: TVRip
Формат: AVI
Видео кодек: XviD
Аудио кодек: AC3
Видео: AVI, 640X480, 25,000 кадров/сек, 1633 Кбит/сек,
Аудио: AC-3, 224 Кбит/сек, 2 канала, 48,0 КГц

Скриншоты

MediaInfo

Общее
Формат : AVI
Формат/Информация : Audio Video Interleave
Размер файла : 846 Мбайт
Продолжительность : 1 ч. 3 м.
Общий поток : 1868 Кбит/сек
Программа кодирования : Lavf52.94.0
Видео
Идентификатор : 0
Формат : xvid
Идентификатор кодека : xvid
Продолжительность : 1 ч. 3 м.
Битрейт : 1633 Кбит/сек
Ширина : 640 пикселей
Высота : 480 пикселей
Соотношение сторон : 4:3
Частота кадров : 25,000 кадров/сек
Бит/(Пиксели*Кадры) : 0.213
Размер потока : 740 Мбайт (87%)
Аудио
Идентификатор : 1
Формат : AC-3
Формат/Информация : Audio Coding 3
Расширение режима : CM (complete main)
Идентификатор кодека : 2000
Продолжительность : 1 ч. 3 м.
Вид битрейта : Постоянный
Битрейт : 224 Кбит/сек
Каналы : 2 канала
Расположение каналов : Front: L R
Частота : 48,0 КГц
Битовая глубина : 16 бит
Метод сжатия : С потерями
Размер потока : 101 Мбайт (12%)
Выравнивание : Соединение по промежуткам
Продолжительность промежутка : 32 мс. (0,80 видеокадр)
Время предзагрузки промежутка : 32 мс.
Шоу залито полностью!
Вы не можете начинать темы
Вы не можете отвечать на сообщения
Вы не можете редактировать свои сообщения
Вы не можете удалять свои сообщения
Вы не можете голосовать в опросах
Вы не можете прикреплять файлы к сообщениям
Вы можете скачивать файлы
!ВНИМАНИЕ!

Сайт не предоставляет электронные версии произведений, а занимается лишь коллекционированием и каталогизацией ссылок, присылаемых и публикуемых на форуме нашими читателями. Если вы являетесь правообладателем какого-либо представленного материала и не желаете, чтобы ссылка на него находилась в нашем каталоге, свяжитесь с нами, и мы незамедлительно удалим ее. Файлы для обмена на трекере предоставлены пользователями сайта, и администрация не несет ответственности за их содержание. Просьба не заливать файлы, защищенные авторскими правами, а также файлы нелегального содержания!

Искали программы, игры, дополнения, музыка mp3, аниме, аудио книги, журналы? Добро пожаловать на свободный торрент трекер Torrents, у нас можно скачать бесплатно, без смс и регистрации и прочих ограничений лучшие, отборные сборки программ, игр. Скачать торрентом не составит труда даже не опытному пользователю. Раздачи ежедневно обновляются, только лучшие и качественные раздачи, подробные описания и скриншоты. Огромная коллекция программ для работы со звуком, графикой, дизайном, а так же множество плагинов и инструментов к ним с подробной инструкцией и рекомендациями. Прошивки для навигаторов, карты. Разнообразные игры, для Windows, Linux. В коллекцие есть и старые игры любых жанров, Rpg, Action, Shooter, strategy Множество дополнений, модификаций, сценариев для популярных игр в жанре экш, рпг, гонки, стратегии, логические игры. Множество аддонов и сценариев для Microsoft Flight Simulator Большая коллекция книг, учебников. Если нет возможности купить печатное издание - смело скачивайте цифровую версию книги или, быть может, журнала. Не любите читать - можно загрузить бесплатно аудикнигу. Для веб дизайнеров и программистов так же найдется множество специализированного софта, таких как: редакторы с подсветкой, среды программирования, компоненты, системы управления базами данных, разнообразные скрипты и шаблоны. Не так давно у нас появился материал для автолюбителей и владельцев мото - оригинальные и неоригинальные каталоги запчастей, книги и журналы по ремонту и обслуживанию, видеоуроки, статьи по чип тюнингу, прошивкам. Процедура получения контента элементарная, достаточно просто скачать торрент файл и добавить его в загрузку в вашем торрент клиенте. Если у вас нет специального торрент клиента, вы можете его скачать у нас.

Mina El Hammani | Breaking Bad - Season 5 | Fear The Walking Dead [S01E02] [720p] [BluRay] [AC3] [x264-Ralf] [Lektor PL] [AgusiQ] [POLISH VOICE OVER]